HandBrake Render of BENCH!

VennStoneVennStone Athens
edited September 2017 in Benchmarks
AMD claims these wacky little RYZEN chips are good with the encoding. Sooo why not give them the Pepsi Challenge?

Grab some HandBrake, download the video, and run the command.

Handbrake: https://handbrake.fr/downloads2.php
Video: https://goo.gl/1ouEZo

Command:
time HandBrakeCLI -Z "Fast 720p30" -i LGCWEP263-Benchmark.mp4 -o epeen.mp4

Results:
SSD
real 10m35.450s
user 120m10.234s
sys 1m41.426s

NVME
real 10m34.720s
user 120m11.104s
sys 1m38.965s

3WlacZV.png

CPU: AMD RYZEN 1700 @ 3.8GHz
RAM: 2933MHz

BONUS GeekBench Soda: https://browser.geekbench.com/v4/cpu/3956268
If it doesn't kill you keep pulling the trigger.

Comments

  • TL; DR -
    eMpTy's 1700X: 12:32.227s on 7200rpm HDD

    System:
    CPU: AMD Ryzen 1700X @ 3.4GHz
    HDD: 500GB 7200rpm HDD

    Command:
    [pre]$ time HandBrakeCLI -Z "Fast 720p30" -i Downloads/LGCWEP263-Benchmark.mp4 -o epeen.mp4[/pre]
    Running:
    [imgur]http://i.imgur.com/hUEkfon.jpg[/imgur]
    Results:
    [pre]real 12m32.227s
    user 139m6.783s
    sys 2m2.430s[/pre]
    Output:
    [18:54:40] hb_init: starting libhb thread
    [18:54:40] thread 7fc9f78b7700 started ("libhb")
    HandBrake 1.0.4 (2010041100) - Linux x86_64 - https://handbrake.fr
    16 CPUs detected
    Opening Downloads/LGCWEP263-Benchmark.mp4...
    [18:54:40] CPU: 
    [18:54:40]  - logical processor count: 16
    [18:54:40] hb_scan: path=Downloads/LGCWEP263-Benchmark.mp4, title_index=1
    udfread ERROR: ECMA 167 Volume Recognition failed
    disc.c:274: failed opening UDF image Downloads/LGCWEP263-Benchmark.mp4
    disc.c:352: error opening file BDMV/index.bdmv
    disc.c:352: error opening file BDMV/BACKUP/index.bdmv
    [18:54:40] bd: not a bd - trying as a stream/file instead
    libdvdnav: Using dvdnav version 5.0.1
    libdvdread: Encrypted DVD support unavailable.
    libdvdread:DVDOpenFileUDF:UDFFindFile /VIDEO_TS/VIDEO_TS.IFO failed
    libdvdread:DVDOpenFileUDF:UDFFindFile /VIDEO_TS/VIDEO_TS.BUP failed
    libdvdread: Can't open file VIDEO_TS.IFO.
    libdvdnav: vm: failed to read VIDEO_TS.IFO
    [18:54:40] dvd: not a dvd - trying as a stream/file instead
    Input #0, mov,mp4,m4a,3gp,3g2,mj2, from 'Downloads/LGCWEP263-Benchmark.mp4':
      Metadata:
        major_brand     : isom
        minor_version   : 512
        compatible_brands: isomiso2avc1mp41
        encoder         : Lavf57.56.101
      Duration: 01:16:50.95, start: 0.025057, bitrate: 5278 kb/s
        Stream #0:0(und): Video: h264 (High) [avc1 / 0x31637661]
          yuv420p, tv, bt709/unknown/bt709
          1280x720 [PAR 1:1 DAR 16:9], 5143 kb/s, PAR 1:1 DAR 16:9
          30 fps, 15360 tbn (default)
        Metadata:
          handler_name    : VideoHandler
        Stream #0:1(und): Audio: mp3 [mp4a / 0x6134706D]
          44100 Hz, 1 channels, s16p, 128 kb/s (default)
        Metadata:
          handler_name    : SoundHandler
    [18:54:40] scan: decoding previews for title 1
    [18:54:40] scan: audio 0x1: mp3, rate=44100Hz, bitrate=128000 Unknown (MP3) (1.0 ch)
    Scanning title 1 of 1, preview 10, 100.00 %[18:54:40] scan: 10 previews, 1280x720, 30.000 fps, autocrop = 0/0/0/0, aspect 16:9, PAR 1:1
    [18:54:40] libhb: scan thread found 1 valid title(s)
    + Using preset: Fast 720p30
    + title 1:
      + stream: Downloads/LGCWEP263-Benchmark.mp4
      + duration: 01:16:50
      + size: 1280x720, pixel aspect: 1/1, display aspect: 1.78, 30.000 fps
      + autocrop: 0/0/0/0
      + support opencl: no
      + chapters:
        + 1: cells 0->0, 0 blocks, duration 01:16:50
      + audio tracks:
        + 1, Unknown (MP3) (1.0 ch) (iso639-2: und)
      + subtitle tracks:
    [18:54:40] 1 job(s) to process
    [18:54:40] json job:
    {
        "Audio": {
            "AudioList": [
                {
                    "Bitrate": 160,
                    "CompressionLevel": -1.0,
                    "DRC": 0.0,
                    "DitherMethod": "auto",
                    "Encoder": "av_aac",
                    "Gain": 0.0,
                    "Mixdown": "mono",
                    "NormalizeMixLevel": false,
                    "PresetEncoder": "av_aac",
                    "Quality": -3.0,
                    "Samplerate": "auto",
                    "Track": 0
                }
            ],
            "CopyMask": [
                "copy:aac"
            ],
            "FallbackEncoder": "av_aac"
        },
        "Destination": {
            "ChapterList": [
                {
                    "Name": ""
                }
            ],
            "ChapterMarkers": false,
            "File": "epeen.mp4",
            "Mp4Options": {
                "IpodAtom": false,
                "Mp4Optimize": false
            },
            "Mux": "m4v"
        },
        "Filters": {
            "FilterList": [
                {
                    "ID": 3,
                    "Settings": {
                        "block-height": "16",
                        "block-thresh": "40",
                        "block-width": "16",
                        "filter-mode": "2",
                        "mode": "3",
                        "motion-thresh": "1",
                        "spatial-metric": "2",
                        "spatial-thresh": "1"
                    }
                },
                {
                    "ID": 4,
                    "Settings": {
                        "mode": "7"
                    }
                },
                {
                    "ID": 6,
                    "Settings": {
                        "mode": 2,
                        "rate": "27000000/900000"
                    }
                },
                {
                    "ID": 11,
                    "Settings": {
                        "crop-bottom": 0,
                        "crop-left": 0,
                        "crop-right": 0,
                        "crop-top": 0,
                        "height": 720,
                        "width": 1280
                    }
                }
            ]
        },
        "Metadata": {},
        "PAR": {
            "Den": 1,
            "Num": 1
        },
        "SequenceID": 0,
        "Source": {
            "Angle": 0,
            "Path": "Downloads/LGCWEP263-Benchmark.mp4",
            "Range": {
                "End": 1,
                "Start": 1,
                "Type": "chapter"
            },
            "Title": 1
        },
        "Subtitle": {
            "Search": {
                "Burn": true,
                "Default": false,
                "Enable": false,
                "Forced": false
            },
            "SubtitleList": []
        },
        "Video": {
            "ColorMatrixCode": 0,
            "Encoder": "x264",
            "Level": "3.1",
            "OpenCL": false,
            "Options": "",
            "Preset": "fast",
            "Profile": "main",
            "QSV": {
                "AsyncDepth": 4,
                "Decode": false
            },
            "Quality": 21.0,
            "Tune": "",
            "Turbo": false,
            "TwoPass": false
        }
    }
    [18:54:40] starting job
    [18:54:40] decomb filter thread started for segment 0
    [18:54:40] decomb filter thread started for segment 5
    [18:54:40] decomb filter thread started for segment 4
    [18:54:40] decomb filter thread started for segment 3
    [18:54:40] decomb filter thread started for segment 1
    [18:54:40] decomb filter thread started for segment 2
    [18:54:40] decomb filter thread started for segment 6
    [18:54:40] decomb filter thread started for segment 8
    [18:54:40] decomb filter thread started for segment 7
    [18:54:40] decomb filter thread started for segment 9
    [18:54:40] decomb filter thread started for segment 10
    [18:54:40] decomb filter thread started for segment 11
    [18:54:40] decomb filter thread started for segment 12
    [18:54:40] decomb filter thread started for segment 13
    [18:54:40] decomb check thread started for segment 8
    [18:54:40] decomb filter thread started for segment 15
    [18:54:40] decomb check thread started for segment 0
    [18:54:40] decomb check thread started for segment 1
    [18:54:40] decomb check thread started for segment 12
    [18:54:40] decomb check thread started for segment 3
    [18:54:40] decomb check thread started for segment 4
    [18:54:40] decomb check thread started for segment 5
    [18:54:40] decomb check thread started for segment 6
    [18:54:40] decomb check thread started for segment 7
    [18:54:40] mask filter thread started for segment 3
    [18:54:40] mask filter thread started for segment 4
    [18:54:40] mask filter thread started for segment 5
    [18:54:40] mask filter thread started for segment 6
    [18:54:40] mask filter thread started for segment 7
    [18:54:40] decomb check thread started for segment 13
    [18:54:40] decomb check thread started for segment 14
    [18:54:40] decomb check thread started for segment 15
    [18:54:40] mask filter thread started for segment 11
    [18:54:40] mask filter thread started for segment 12
    [18:54:40] mask filter thread started for segment 2
    [18:54:40] decomb filter thread started for segment 14
    [18:54:40] decomb check thread started for segment 9
    [18:54:40] decomb check thread started for segment 10
    [18:54:40] mask erode thread started for segment 0
    [18:54:40] decomb check thread started for segment 2
    [18:54:40] mask erode thread started for segment 3
    [18:54:40] mask filter thread started for segment 9
    [18:54:40] mask filter thread started for segment 10
    [18:54:40] mask filter thread started for segment 0
    [18:54:40] mask filter thread started for segment 1
    [18:54:40] mask filter thread started for segment 13
    [18:54:40] mask erode thread started for segment 10
    [18:54:40] mask filter thread started for segment 15
    [18:54:40] mask erode thread started for segment 13
    [18:54:40] mask erode thread started for segment 14
    [18:54:40] mask erode thread started for segment 2
    [18:54:40] mask filter thread started for segment 8
    [18:54:40] mask erode thread started for segment 5
    [18:54:40] mask erode thread started for segment 4
    [18:54:40] mask erode thread started for segment 6
    [18:54:40] mask dilate thread started for segment 4
    [18:54:40] mask dilate thread started for segment 5
    [18:54:40] mask erode thread started for segment 9
    [18:54:40] mask filter thread started for segment 14
    [18:54:40] mask erode thread started for segment 11
    [18:54:40] mask erode thread started for segment 12
    [18:54:40] mask dilate thread started for segment 11
    [18:54:40] decomb check thread started for segment 11
    [18:54:40] mask dilate thread started for segment 13
    [18:54:40] mask dilate thread started for segment 0
    [18:54:40] mask dilate thread started for segment 15
    [18:54:40] mask dilate thread started for segment 2
    [18:54:40] mask dilate thread started for segment 3
    [18:54:40] yadif thread started for segment 1
    [18:54:40] yadif thread started for segment 2
    [18:54:40] mask dilate thread started for segment 6
    [18:54:40] yadif thread started for segment 4
    [18:54:40] mask dilate thread started for segment 8
    [18:54:40] mask dilate thread started for segment 9
    [18:54:40] mask dilate thread started for segment 10
    [18:54:40] mask erode thread started for segment 1
    [18:54:40] mask dilate thread started for segment 12
    [18:54:40] mask erode thread started for segment 15
    [18:54:40] mask dilate thread started for segment 14
    [18:54:40] mask dilate thread started for segment 1
    [18:54:40] yadif thread started for segment 0
    [18:54:40] mask erode thread started for segment 7
    [18:54:40] mask erode thread started for segment 8
    [18:54:40] yadif thread started for segment 3
    [18:54:40] mask dilate thread started for segment 7
    [18:54:40] yadif thread started for segment 5
    [18:54:40] yadif thread started for segment 6
    [18:54:40] yadif thread started for segment 7
    [18:54:40] yadif thread started for segment 8
    [18:54:40] yadif thread started for segment 9
    [18:54:40] yadif thread started for segment 10
    [18:54:40] yadif thread started for segment 11
    [18:54:40] yadif thread started for segment 12
    [18:54:40] yadif thread started for segment 13
    [18:54:40] yadif thread started for segment 14
    [18:54:40] yadif thread started for segment 15
    [18:54:40] job configuration:
    [18:54:40]  * source
    [18:54:40]    + Downloads/LGCWEP263-Benchmark.mp4
    [18:54:40]    + title 1, chapter(s) 1 to 1
    [18:54:40]    + container: mov,mp4,m4a,3gp,3g2,mj2
    [18:54:40]    + data rate: 5278 kbps
    [18:54:40]  * destination
    [18:54:40]    + epeen.mp4
    [18:54:40]    + container: MPEG-4 (libavformat)
    [18:54:40]  * video track
    [18:54:40]    + decoder: h264
    [18:54:40]      + bitrate 5143 kbps
    [18:54:40]    + filters
    [18:54:40]      + Comb Detect (mode=3:spatial-metric=2:motion-thresh=1:spatial-thresh=1:filter-mode=2:block-thresh=40:block-width=16:block-height=16)
    [18:54:40]      + Decomb (mode=39)
    [18:54:40]      + Framerate Shaper (mode=2:rate=27000000/900000)
    [18:54:40]        + frame rate: 30.000 fps -> peak rate limited to 30.000 fps
    [18:54:40]      + Crop and Scale (width=1280:height=720:crop-top=0:crop-bottom=0:crop-left=0:crop-right=0)
    [18:54:40]        + source: 1280 * 720, crop (0/0/0/0): 1280 * 720, scale: 1280 * 720
    [18:54:40]    + Output geometry
    [18:54:40]      + storage dimensions: 1280 x 720
    [18:54:40]      + pixel aspect ratio: 1 : 1
    [18:54:40]      + display dimensions: 1280 x 720
    [18:54:40]    + encoder: H.264 (libx264)
    [18:54:40]      + preset:  fast
    [18:54:40]      + profile: main
    [18:54:40]      + level:   3.1
    [18:54:40]      + quality: 21.00 (RF)
    [18:54:40]  * audio track 1
    [18:54:40]    + decoder: Unknown (MP3) (1.0 ch) (track 1, id 0x1)
    [18:54:40]      + bitrate: 128 kbps, samplerate: 44100 Hz
    [18:54:40]    + mixdown: Mono
    [18:54:40]    + encoder: AAC (libavcodec)
    [18:54:40]      + bitrate: 160 kbps, samplerate: 44100 Hz
    [18:54:40] sync: expecting 138328 video frames
    [18:54:40] encx264: min-keyint: 30, keyint: 300
    [18:54:40] encx264: encoding at constant RF 21.000000
    [18:54:40] encx264: unparsed options: level=3.1:ref=2:8x8dct=0:weightp=1:subme=6:vbv-bufsize=14000:vbv-maxrate=14000:rc-lookahead=30
    x264 [info]: using SAR=1/1
    x264 [info]: using cpu capabilities: MMX2 SSE2Fast SSSE3 SSE4.2 AVX FMA3 AVX2 LZCNT BMI2
    x264 [info]: profile Main, level 3.1
    [18:54:40] sync: first pts audio 0x1 is 0
    [18:54:40] sync: first pts video is 2255
    [18:54:40] sync: Chapter 1 at frame 1 time 2255
    Encoding: task 1 of 1, 99.90 % (244.81 fps, avg 184.16 fps, ETA 00h00m01s)[19:07:11] reader: done. 1 scr changes
    Encoding: task 1 of 1, 99.97 % (244.81 fps, avg 184.16 fps, ETA 00h00m01s)[19:07:12] work: average encoding speed for job is 184.159531 fps
    [19:07:12] comb detect: heavy 597 | light 3358 | uncombed 134372 | total 138327
    [19:07:12] decomb: deinterlaced 597 | blended 3358 | unfiltered 134372 | total 138327
    [19:07:12] vfr: 138327 frames output, 0 dropped and 0 duped for CFR/PFR
    [19:07:12] vfr: lost time: 0 (0 frames)
    [19:07:12] vfr: gained time: 0 (0 frames) (0 not accounted for)
    Encoding: task 1 of 1, 99.97 % (244.81 fps, avg 184.16 fps, ETA 00h00m01s)[19:07:12] mp3-decoder done: 176513 frames, 0 decoder errors
    [19:07:12] h264-decoder done: 138327 frames, 0 decoder errors
    [19:07:12] sync: got 138327 frames, 138328 expected
    [19:07:12] sync: framerate min 30.000 fps, max 30.000 fps, avg 30.000 fps
    x264 [info]: frame I:489   Avg QP:13.91  size: 87311
    x264 [info]: frame P:43947 Avg QP:18.14  size:  9822
    x264 [info]: frame B:93891 Avg QP:21.14  size:  2071
    x264 [info]: consecutive B-frames:  3.9% 15.5%  4.2% 76.5%
    x264 [info]: mb I  I16..4: 43.7%  0.0% 56.3%
    x264 [info]: mb P  I16..4:  8.1%  0.0%  2.9%  P16..4: 20.7%  7.9%  3.8%  0.0%  0.0%    skip:56.6%
    x264 [info]: mb B  I16..4:  1.6%  0.0%  0.1%  B16..8: 11.5%  2.6%  0.1%  direct: 4.8%  skip:79.2%  L0:47.0% L1:46.9% BI: 6.1%
    x264 [info]: coded y,uvDC,uvAC intra: 21.9% 50.2% 20.3% inter: 3.7% 10.5% 0.3%
    x264 [info]: i16 v,h,dc,p: 50% 31% 13%  7%
    x264 [info]: i4 v,h,dc,ddl,ddr,vr,hd,vl,hu: 27% 25% 21%  4%  5%  5%  5%  4%  4%
    x264 [info]: i8c dc,h,v,p: 58% 23% 16%  3%
    x264 [info]: Weighted P-Frames: Y:1.6% UV:1.3%
    x264 [info]: ref P L0: 74.1% 25.9%
    x264 [info]: ref B L0: 81.7% 18.3%
    x264 [info]: ref B L1: 96.1%  3.9%
    x264 [info]: kb/s:1160.32
    [19:07:12] mux: track 0, 138327 frames, 668749857 bytes, 1160.28 kbps, fifo 4096
    [19:07:12] mux: track 1, 198578 frames, 92660592 bytes, 160.77 kbps, fifo 8192
    [19:07:12] libhb: work result = 0
    
    Encode done!
    
    HandBrake has exited.
    
    real    12m32.227s
    user    139m6.783s
    sys     2m2.430s
    
    Time flies like an arrow. Fruit flies like a banana.
    -Groucho Marx
  • You just barely beat me, Venn...

    CPUs: 2x Intel Xeon E5-2670 pstate locked to ~3 GHz
    RAM: 8x8GB DDR3 ECC at 1333 MHz
    Encoding was done from tmpfs to eliminate storage bottlenecking
    HandBrake has exited.                        
    HandBrakeCLI -Z "Fast 720p30" -i /tmp/LGCWEP263-Benchmark.mp4 -o /tmp/epeen.mp4  11045.59s user 329.05s system 1789% cpu 10:35.73 total
    

    That's with the utilization fluctuating between high 50's and low 60's, with the CPU's locked at full turbo speed via pstate. Without the pstate lock, the CPU's were not achieving speeds above base, and were sometimes downclocking. So yeah, [nope]Handbrake[/nope] video encoding prefers Ryzen threads.
  • Sony Playstation 3
    HandBrakeCLI -Z "Fast 720p30" -i LGCWEP263-Benchmark.mp4 -o epeen.mp4  7394.72s user 99.51s system 646% cpu 19:18.69 total
    
    programming.gif
    Me when I'm coding Lutris
  • Intel i7-4790
    [email protected]:~/Downloads> time HandBrakeCLI -Z "Fast 720p30" -i LGCWEP263-Benchmark.mp4 -o epeen.mp4
    [12:59:59] hb_init: starting libhb thread
    [12:59:59] thread 7ff8e5006700 started ("libhb")
    HandBrake 1.0.7 (2017041000) - Linux x86_64 - https://handbrake.fr
    8 CPUs detected
    Opening LGCWEP263-Benchmark.mp4...
    [12:59:59] CPU: Intel(R) Core(TM) i7-4790 CPU @ 3.60GHz
    [12:59:59]  - Intel microarchitecture Haswell
    [12:59:59]  - logical processor count: 8
    [12:59:59] hb_scan: path=LGCWEP263-Benchmark.mp4, title_index=1
    udfread ERROR: ECMA 167 Volume Recognition failed
    disc.c:323: failed opening UDF image LGCWEP263-Benchmark.mp4
    disc.c:424: error opening file BDMV/index.bdmv
    disc.c:424: error opening file BDMV/BACKUP/index.bdmv
    [12:59:59] bd: not a bd - trying as a stream/file instead
    libdvdnav: Using dvdnav version 5.0.3
    libdvdread:DVDOpenFileUDF:UDFFindFile /VIDEO_TS/VIDEO_TS.IFO failed
    libdvdread:DVDOpenFileUDF:UDFFindFile /VIDEO_TS/VIDEO_TS.BUP failed
    libdvdread: Can't open file VIDEO_TS.IFO.
    libdvdnav: vm: failed to read VIDEO_TS.IFO
    [12:59:59] dvd: not a dvd - trying as a stream/file instead
    Input #0, mov,mp4,m4a,3gp,3g2,mj2, from 'LGCWEP263-Benchmark.mp4':
      Metadata:
        major_brand     : isom
        minor_version   : 512
        compatible_brands: isomiso2avc1mp41
        encoder         : Lavf57.56.101
      Duration: 01:16:50.95, start: 0.000000, bitrate: 5278 kb/s
        Stream #0:0(und): Video: h264 (High) (avc1 / 0x31637661), yuv420p(tv, bt709/unknown/bt709), 1280x720 [SAR 1:1 DAR 16:9], 5143 kb/s, 30 fps, 30 tbr, 15360 tbn, 60 tbc (default)
        Metadata:
          handler_name    : VideoHandler
        Stream #0:1(und): Audio: mp3 (mp4a / 0x6134706D), 44100 Hz, mono, s16p, 128 kb/s (default)
        Metadata:
          handler_name    : SoundHandler
    [12:59:59] scan: decoding previews for title 1
    [12:59:59] scan: audio 0x1: mp3, rate=44100Hz, bitrate=128000 Unknown (MP3) (1.0 ch)
    Scanning title 1 of 1, preview 9, 90.00 %[13:00:00] scan: 10 previews, 1280x720, 30.000 fps, autocrop = 0/0/0/0, aspect 16:9, PAR 1:1
    [13:00:00] libhb: scan thread found 1 valid title(s)
    + Using preset: Fast 720p30
    + title 1:
      + stream: LGCWEP263-Benchmark.mp4
      + duration: 01:16:50
      + size: 1280x720, pixel aspect: 1/1, display aspect: 1.78, 30.000 fps
      + autocrop: 0/0/0/0
      + support opencl: no
      + chapters:
        + 1: cells 0->0, 0 blocks, duration 01:16:50
      + audio tracks:
        + 1, Unknown (MP3) (1.0 ch) (iso639-2: und)
      + subtitle tracks:
    [13:00:00] 1 job(s) to process
    [13:00:00] json job:
    {
        "Audio": {
            "AudioList": [
                {
                    "Bitrate": 160,
                    "CompressionLevel": -1.0,
                    "DRC": 0.0,
                    "DitherMethod": "auto",
                    "Encoder": "fdk_aac",
                    "Gain": 0.0,
                    "Mixdown": "mono",
                    "NormalizeMixLevel": false,
                    "PresetEncoder": "fdk_aac",
                    "Quality": -3.0,
                    "Samplerate": "auto",
                    "Track": 0
                }
            ],
            "CopyMask": [
                "copy:aac"
            ],
            "FallbackEncoder": "fdk_aac"
        },
        "Destination": {
            "ChapterList": [
                {
                    "Name": ""
                }
            ],
            "ChapterMarkers": false,
            "File": "epeen.mp4",
            "Mp4Options": {
                "IpodAtom": false,
                "Mp4Optimize": false
            },
            "Mux": "m4v"
        },
        "Filters": {
            "FilterList": [
                {
                    "ID": 3,
                    "Settings": {
                        "block-height": "16",
                        "block-thresh": "40",
                        "block-width": "16",
                        "filter-mode": "2",
                        "mode": "3",
                        "motion-thresh": "1",
                        "spatial-metric": "2",
                        "spatial-thresh": "1"
                    }
                },
                {
                    "ID": 4,
                    "Settings": {
                        "mode": "7"
                    }
                },
                {
                    "ID": 6,
                    "Settings": {
                        "mode": 2,
                        "rate": "27000000/900000"
                    }
                },
                {
                    "ID": 11,
                    "Settings": {
                        "crop-bottom": 0,
                        "crop-left": 0,
                        "crop-right": 0,
                        "crop-top": 0,
                        "height": 720,
                        "width": 1280
                    }
                }
            ]
        },
        "Metadata": {},
        "PAR": {
            "Den": 1,
            "Num": 1
        },
        "SequenceID": 0,
        "Source": {
            "Angle": 0,
            "Path": "LGCWEP263-Benchmark.mp4",
            "Range": {
                "End": 1,
                "Start": 1,
                "Type": "chapter"
            },
            "Title": 1
        },
        "Subtitle": {
            "Search": {
                "Burn": true,
                "Default": false,
                "Enable": false,
                "Forced": false
            },
            "SubtitleList": []
        },
        "Video": {
            "ColorMatrixCode": 0,
            "Encoder": "x264",
            "Level": "3.1",
            "OpenCL": false,
            "Options": "",
            "Preset": "fast",
            "Profile": "main",
            "QSV": {
                "AsyncDepth": 4,
                "Decode": false
            },
            "Quality": 21.0,
            "Tune": "",
            "Turbo": false,
            "TwoPass": false
        }
    }
    [13:00:00] starting job
    [13:00:00] decomb filter thread started for segment 0
    [13:00:00] decomb filter thread started for segment 1
    [13:00:00] decomb filter thread started for segment 6
    [13:00:00] decomb filter thread started for segment 3
    [13:00:00] decomb check thread started for segment 0
    [13:00:00] decomb filter thread started for segment 5
    [13:00:00] decomb filter thread started for segment 2
    [13:00:00] decomb check thread started for segment 7
    [13:00:00] decomb filter thread started for segment 4
    [13:00:00] decomb check thread started for segment 1
    [13:00:00] decomb check thread started for segment 2
    [13:00:00] decomb check thread started for segment 4
    [13:00:00] decomb check thread started for segment 3
    [13:00:00] decomb check thread started for segment 5
    [13:00:00] decomb check thread started for segment 6
    [13:00:00] decomb filter thread started for segment 7
    [13:00:00] mask filter thread started for segment 0
    [13:00:00] mask filter thread started for segment 1
    [13:00:00] mask filter thread started for segment 2
    [13:00:00] mask erode thread started for segment 7
    [13:00:00] mask filter thread started for segment 4
    [13:00:00] mask filter thread started for segment 5
    [13:00:00] mask filter thread started for segment 6
    [13:00:00] mask filter thread started for segment 7
    [13:00:00] mask erode thread started for segment 0
    [13:00:00] mask erode thread started for segment 1
    [13:00:00] mask erode thread started for segment 2
    [13:00:00] mask erode thread started for segment 3
    [13:00:00] mask erode thread started for segment 4
    [13:00:00] yadif thread started for segment 3
    [13:00:00] mask erode thread started for segment 6
    [13:00:00] mask filter thread started for segment 3
    [13:00:00] mask dilate thread started for segment 0
    [13:00:00] mask dilate thread started for segment 1
    [13:00:00] mask dilate thread started for segment 2
    [13:00:00] mask dilate thread started for segment 3
    [13:00:00] mask dilate thread started for segment 4
    [13:00:00] mask dilate thread started for segment 5
    [13:00:00] mask dilate thread started for segment 6
    [13:00:00] mask dilate thread started for segment 7
    [13:00:00] yadif thread started for segment 0
    [13:00:00] yadif thread started for segment 1
    [13:00:00] yadif thread started for segment 2
    [13:00:00] mask erode thread started for segment 5
    [13:00:00] yadif thread started for segment 4
    [13:00:00] yadif thread started for segment 5
    [13:00:00] yadif thread started for segment 6
    [13:00:00] yadif thread started for segment 7
    [13:00:00] job configuration:
    [13:00:00]  * source
    [13:00:00]    + LGCWEP263-Benchmark.mp4
    [13:00:00]    + title 1, chapter(s) 1 to 1
    [13:00:00]    + container: mov,mp4,m4a,3gp,3g2,mj2
    [13:00:00]    + data rate: 5278 kbps
    [13:00:00]  * destination
    [13:00:00]    + epeen.mp4
    [13:00:00]    + container: MPEG-4 (libavformat)
    [13:00:00]  * video track
    [13:00:00]    + decoder: h264
    [13:00:00]      + bitrate 5143 kbps
    [13:00:00]    + filters
    [13:00:00]      + Comb Detect (mode=3:spatial-metric=2:motion-thresh=1:spatial-thresh=1:filter-mode=2:block-thresh=40:block-width=16:block-height=16)
    [13:00:00]      + Decomb (mode=39)
    [13:00:00]      + Framerate Shaper (mode=2:rate=27000000/900000)
    [13:00:00]        + frame rate: 30.000 fps -> peak rate limited to 30.000 fps
    [13:00:00]      + Crop and Scale (width=1280:height=720:crop-top=0:crop-bottom=0:crop-left=0:crop-right=0)
    [13:00:00]        + source: 1280 * 720, crop (0/0/0/0): 1280 * 720, scale: 1280 * 720
    [13:00:00]    + Output geometry
    [13:00:00]      + storage dimensions: 1280 x 720
    [13:00:00]      + pixel aspect ratio: 1 : 1
    [13:00:00]      + display dimensions: 1280 x 720
    [13:00:00]    + encoder: H.264 (libx264)
    [13:00:00]      + preset:  fast
    [13:00:00]      + profile: main
    [13:00:00]      + level:   3.1
    [13:00:00]      + quality: 21.00 (RF)
    [13:00:00]  * audio track 1
    [13:00:00]    + decoder: Unknown (MP3) (1.0 ch) (track 1, id 0x1)
    [13:00:00]      + bitrate: 128 kbps, samplerate: 44100 Hz
    [13:00:00]    + mixdown: Mono
    [13:00:00]    + dither: triangular
    [13:00:00]    + encoder: AAC (libfdk_aac)
    [13:00:00]      + bitrate: 160 kbps, samplerate: 44100 Hz
    [13:00:00] sync: expecting 138328 video frames
    [13:00:00] encx264: min-keyint: 30, keyint: 300
    [13:00:00] encx264: encoding at constant RF 21.000000
    [13:00:00] encx264: unparsed options: level=3.1:ref=2:8x8dct=0:weightp=1:subme=6:vbv-bufsize=14000:vbv-maxrate=14000:rc-lookahead=30
    x264 [info]: using SAR=1/1
    x264 [info]: using cpu capabilities: MMX2 SSE2Fast SSSE3 SSE4.2 AVX FMA3 AVX2 LZCNT BMI2
    x264 [info]: profile Main, level 3.1
    [13:00:00] sync: first pts audio 0x1 is 0
    [13:00:00] sync: first pts video is 2255
    [13:00:00] sync: Chapter 1 at frame 1 time 2255
    Encoding: task 1 of 1, 99.93 % (164.68 fps, avg 112.64 fps, ETA 00h00m01s)[13:20:27] reader: done. 1 scr changes
    Encoding: task 1 of 1, 99.97 % (164.68 fps, avg 112.64 fps, ETA 00h00m01s)[13:20:28] work: average encoding speed for job is 112.638145 fps
    Encoding: task 1 of 1, 99.97 % (164.68 fps, avg 112.64 fps, ETA 00h00m01s)[13:20:28] comb detect: heavy 597 | light 3358 | uncombed 134372 | total 138327
    [13:20:28] decomb: deinterlaced 597 | blended 3358 | unfiltered 134372 | total 138327
    [13:20:28] vfr: 138327 frames output, 0 dropped and 0 duped for CFR/PFR
    [13:20:28] vfr: lost time: 0 (0 frames)
    [13:20:28] vfr: gained time: 0 (0 frames) (0 not accounted for)
    [13:20:28] mp3-decoder done: 176513 frames, 0 decoder errors
    [13:20:28] h264-decoder done: 138327 frames, 0 decoder errors
    [13:20:28] sync: got 138327 frames, 138328 expected
    [13:20:28] sync: framerate min 30.000 fps, max 30.000 fps, avg 30.000 fps
    x264 [info]: frame I:490   Avg QP:13.81  size: 87664
    x264 [info]: frame P:43707 Avg QP:18.09  size:  9945
    x264 [info]: frame B:94130 Avg QP:21.14  size:  2096
    x264 [info]: consecutive B-frames:  3.7% 15.4%  4.2% 76.7%
    x264 [info]: mb I  I16..4: 43.7%  0.0% 56.3%
    x264 [info]: mb P  I16..4:  8.0%  0.0%  3.0%  P16..4: 20.6%  7.9%  3.8%  0.0%  0.0%    skip:56.7%
    x264 [info]: mb B  I16..4:  1.6%  0.0%  0.1%  B16..8: 11.5%  2.6%  0.1%  direct: 4.9%  skip:79.2%  L0:46.9% L1:46.9% BI: 6.2%
    x264 [info]: coded y,uvDC,uvAC intra: 22.1% 50.4% 20.7% inter: 3.7% 10.5% 0.3%
    x264 [info]: i16 v,h,dc,p: 50% 31% 13%  7%
    x264 [info]: i4 v,h,dc,ddl,ddr,vr,hd,vl,hu: 27% 25% 20%  4%  5%  5%  5%  4%  5%
    x264 [info]: i8c dc,h,v,p: 58% 23% 16%  3%
    x264 [info]: Weighted P-Frames: Y:1.6% UV:1.3%
    x264 [info]: ref P L0: 74.1% 25.9%
    x264 [info]: ref B L0: 81.8% 18.2%
    x264 [info]: ref B L1: 96.2%  3.8%
    x264 [info]: kb/s:1170.93
    [13:20:28] mux: track 0, 138327 frames, 674863809 bytes, 1170.88 kbps, fifo 4096
    [13:20:28] mux: track 1, 198578 frames, 92219444 bytes, 160.00 kbps, fifo 8192
    [13:20:28] libhb: work result = 0
    
    Encode done!
    
    HandBrake has exited.
    
    real    20m29.055s
    user    129m16.092s
    sys     1m11.648s
    [email protected]:~/Downloads>
    
  • i7-7700K @ 4.2 GHz
    16GB RAM

    Trying out new CPU I got yesterday, good timing Venn :)

    395x1Wf.png
  • real    13m7.207s
    user    91m56.850s
    sys     0m48.184s
    

    System
    [email protected]:~/lgcbench$ inxi -F -z
    System:    Host: kiorewha Kernel: 4.12.0-12-generic x86_64 bits: 64 Desktop: KDE Plasma 5.10.5
               Distro: Ubuntu Artful Aardvark (development branch)
    Machine:   Device: desktop Mobo: Gigabyte model: Z270X-Gaming 7 v: x.x serial: N/A
               UEFI: American Megatrends v: F7 date: 07/06/2017
    CPU:       Quad core Intel Core i7-7700K (-HT-MCP-) cache: 8192 KB
               clock speeds: max: 4900 MHz 1: 4865 MHz 2: 4799 MHz 3: 4799 MHz 4: 4800 MHz 5: 4868 MHz 6: 4799 MHz
               7: 4799 MHz 8: 4799 MHz
    Graphics:  Card: NVIDIA GP102 [GeForce GTX 1080 Ti]
               Display Server: x11 (X.Org 1.19.3 ) drivers: nvidia (unloaded: modesetting,fbdev,vesa)
               Resolution: [email protected]
               OpenGL: renderer: GeForce GTX 1080 Ti/PCIe/SSE2 version: 4.5.0 NVIDIA 384.69
    Audio:     Card-1 Intel 200 Series PCH HD Audio driver: snd_hda_intel Sound: ALSA v: k4.12.0-12-generic
               Card-2 NVIDIA GP102 HDMI Audio Controller driver: snd_hda_intel
               Card-3 Conexant Systems (Rockwell) driver: USB Audio
               Card-4 Focusrite-Novation Scarlett 6i6 driver: USB Audio
               Card-5 Cypress driver: USB Audio
    Network:   Card-1: Intel Ethernet Connection (2) I219-V driver: e1000e
               IF: enp0s31f6 state: down mac: <filter>
               Card-2: Qualcomm Atheros Device e0b1 driver: alx
               IF: enp7s0 state: up speed: 1000 Mbps duplex: full mac: <filter>
               Card-3: Broadcom Limited NetXtreme BCM57762 Gigabit Ethernet PCIe driver: tg3
               IF: enp14s0 state: down mac: <filter>
               Card-4: Realtek RTL8192CU 802.11n WLAN Adapter
               IF: null-if-id state: N/A mac: N/A
    Drives:    HDD Total Size: 8001.6GB (65.4% used)
               ID-1: /dev/nvme0n1 model: N/A size: 512.1GB
               ID-2: /dev/sda model: WDC_WD80EFZX size: 8001.6GB
    Partition: ID-1: / size: 183G used: 83G (46%) fs: btrfs dev: /dev/nvme0n1p6
    RAID:      No RAID devices: /proc/mdstat, md_mod kernel module present
    Sensors:   System Temperatures: cpu: 71.0C mobo: 27.8C gpu: 45C
               Fan Speeds (in rpm): cpu: N/A
    Info:      Processes: 518 Uptime: 2 days Memory: 4416.7/48134.8MB Client: Shell (bash) inxi: 2.3.37 
    

    Pic's or GTFO

    4GndNhP.png
    BND4RGB.png
  • aenertia wrote:
    Kernel: 4.12
    Ubuntu Artful Aardvark (development branch)
    Intel Core i7-7700K max: 4900 MHz
    GeForce GTX 1080 Ti

    Absolute badassery, I like it!

    high-five.gif
    programming.gif
    Me when I'm coding Lutris
  • Good ol' Piledriver system here...

    AMD FX-8350 at 4.725GHz
    16Gb RAM, 2x Crucial BX100 250Gb SSD in YOL0 RAID

    real 21m18.393s
    user 168m55.908s
    sys 1m42.078s
  • 4.12-Liquorix Kernel
    AMD FX8370E @4.5GHz
    1866MHz DDR3 RAM
    2 x 850 EVO in YOL0 RAID
    x264 [info]: frame I:489   Avg QP:13.90  size: 87730
    x264 [info]: frame P:48945 Avg QP:18.22  size: 10006
    x264 [info]: frame B:88893 Avg QP:21.35  size:  1729
    x264 [info]: consecutive B-frames: 10.8%  9.8%  2.3% 77.0%
    x264 [info]: mb I  I16..4: 43.8%  0.0% 56.2%
    x264 [info]: mb P  I16..4:  9.2%  0.0%  2.9%  P16..4: 22.3%  7.8%  3.6%  0.0%  0.0%    skip:54.1%
    x264 [info]: mb B  I16..4:  1.0%  0.0%  0.1%  B16..8: 10.2%  2.1%  0.1%  direct: 4.5%  skip:82.0%  L0:44.5% L1:48.8% BI: 6.7%
    x264 [info]: coded y,uvDC,uvAC intra: 21.3% 49.5% 19.5% inter: 3.8% 10.3% 0.3%
    x264 [info]: i16 v,h,dc,p: 50% 30% 13%  7%
    x264 [info]: i4 v,h,dc,ddl,ddr,vr,hd,vl,hu: 27% 25% 21%  4%  5%  5%  5%  4%  4%
    x264 [info]: i8c dc,h,v,p: 58% 23% 16%  3%
    x264 [info]: Weighted P-Frames: Y:2.7% UV:2.1%
    x264 [info]: ref P L0: 73.8% 26.2%
    x264 [info]: ref B L0: 80.7% 19.3%
    x264 [info]: ref B L1: 95.7%  4.3%
    x264 [info]: kb/s:1190.86
    [20:21:10] mux: track 0, 138327 frames, 686352911 bytes, 1190.82 kbps, fifo 4096
    [20:21:10] mux: track 1, 198578 frames, 92660592 bytes, 160.77 kbps, fifo 8192
    [20:21:10] libhb: work result = 0
    
    Encode done!
    
    HandBrake has exited.
    
    real	21m25.886s
    user	178m48.974s
    sys	1m51.901s
    
    There's bending the rules and then there's violating them anally with a steak tenderizer.
  • Hmmm, I didnt do too bad for using slow 5400 RPM SATA drives on a SAS RAID card.

    command.
    time HandBrakeCLI -Z "Fast 720p30" -i LGCWEP263-Benchmark.mp4 -o epeen.mp4 | tee epeen.txt

    time HandBrakeCLI -Z "Fast 720p30" -i LGCWEP263-Benchmark.mp4 -o epeen.mp4 | tee epeen.txt
    
    
    Encode done!
    HandBrake has exited.
    
    
    real    23m55.399s
    user    373m3.797s
    sys     6m16.907s
    

    Sysinfo:

    System:    Kernel: 4.14.2-2.g536d718-default x86_64 (64 bit) Desktop: Xfce 4.12.4
               Distro: openSUSE Leap 42.3
    Machine:   Device: server System: Dell product: PowerEdge T410
               Mobo: Dell model: 0H19HD v: A03 BIOS: Dell v: 1.12.0 date: 07/30/2013
    Battery    hidpp__0: charge: N/A condition: NA/NA Wh
    CPU(s):    2 Hexa core Intel Xeon X5660s (-HT-MCP-SMP-) cache: 24576 KB 
               clock speeds: max: 2792 MHz 1: 2792 MHz 2: 2792 MHz 3: 2792 MHz 4: 2792 MHz 5: 2792 MHz 6: 2792 MHz
               7: 2792 MHz 8: 2792 MHz 9: 2792 MHz 10: 2792 MHz 11: 2792 MHz 12: 2792 MHz 13: 2792 MHz 14: 2792 MHz
               15: 2792 MHz 16: 2792 MHz 17: 2792 MHz 18: 2792 MHz 19: 2792 MHz 20: 2792 MHz 21: 2792 MHz
               22: 2792 MHz 23: 2792 MHz 24: 2792 MHz
    Graphics:  Card: NVIDIA GP108 [GeForce GT 1030]
               Display Server: X.Org 1.19.5 drivers: nvidia (unloaded: modesetting,fbdev,nv,vesa,nouveau)
               Resolution: [email protected], [email protected]
               GLX Renderer: GeForce GT 1030/PCIe/SSE2 GLX Version: 4.6.0 NVIDIA 387.34
    Audio:     Card-1 NVIDIA GP108 High Definition Audio Controller driver: snd_hda_intel
               Card-2 C-Media Storm HP-USB500 5.1 Headset driver: USB Audio
               Card-3 Logitech V20 portable speakers (USB powered) driver: USB Audio
               Sound: Advanced Linux Sound Architecture v: k4.14.2-2.g536d718-default
    Network:   Card-1: Broadcom NetXtreme II BCM5716 Gigabit Ethernet driver: bnx2
               IF: em1 state: up speed: 1000 Mbps duplex: full mac: 78:2b:cb:34:0f:df
               Card-2: Broadcom NetXtreme II BCM5716 Gigabit Ethernet driver: bnx2
               IF: em2 state: down mac: 78:2b:cb:34:0f:e0
    Drives:    HDD Total Size: 1958.1GB (13.6% used)
               ID-1: /dev/sda model: PERC_6/i_Adapter size: 159.5GB
               ID-2: /dev/sdb model: PERC_6/i_Adapter size: 159.5GB
               ID-3: /dev/sdc model: PERC_6/i_Adapter size: 999.7GB
               ID-4: /dev/sdd model: PERC_6/i_Adapter size: 639.5GB
    Partition: ID-1: / size: 143G used: 23G (16%) fs: ext4 dev: /dev/sda2
               ID-2: /home size: 147G used: 50G (34%) fs: ext4 dev: /dev/sdb1
               ID-3: swap-1 size: 4.09GB used: 0.00GB (0%) fs: swap dev: /dev/sda1
    Sensors:   System Temperatures: cpu: 26.0C mobo: N/A gpu: 34C
               Fan Speeds (in rpm): cpu: N/A
    Info:      Processes: 419 Uptime: 3:26 Memory: 5468.2/64412.8MB Client: Shell (bash) inxi: 2.3.8

    See attached files for more info.

  • edited January 7

    x86_64 Linux 4.10.0-42-generic
    CPU: Intel Core i5-6600K CPU @ 4x 4.2GHz
    RAM: 2133MHz Kingston DDR4 16GB
    Storage: 60GB Corsair SSD (sys) + 250GB HDD (home) + 250GB Intel SSD (games) + 500GB Intel SSD (games2)

    real 20m37.243s
    user 67m16.072s
    sys 0m48.900s

Leave a Comment

Drop image/file